extratorrent - A Fan Made Alternative Login   |   Register
Important Information
Registrations are open now
-------------------------------------

Please click here to register with Extratorrent2 to recieve latest updates, add bookmarks and to post comments.

Friends
Friends

1) ProxyFix

Extratorrent2 > Categories > Movies > Beauty And The Beast The Enchanted Christmas 1997 x264 720p Esub BluRay Dual Audio English Hindi GOPISAHI torrent


Browse Movies torrents

Beauty And The Beast The Enchanted Christmas 1997 x264 720p Esub BluRay Dual Audio English Hindi GOPISAHI torrent


Download torrent: Download Beauty And The Beast The Enchanted Christmas 1997 x264 720p Esub BluRay Dual Audio English Hindi GOPISAHI torrent Magnet link Bookmark Torrent: Beauty And The Beast The Enchanted Christmas 1997 x264 720p Esub BluRay Dual Audio English Hindi GOPISAHI   Beauty And The Beast The Enchanted Christmas 1997 x264 720p Esub BluRay Dual Audio English Hindi GOPISAHI torrent
Info hash: 3731914322BD3ED6F20B77B778FE1D796D9EE023
Category: Categories > Movies
Trackers:
View all torrent trackers >
Health:
 seeds: 5 ,  leechers: 3 |  Update >
Torrent language: English English
Total Size: 452.9 MB
Files List:
1    View torrent files >
Uploader:
PENDUDESI
Torrent added: October 8, 2018, 4:31 pm
Users rating: ---, not rated. please login to rate.

Download Beauty And The Beast The Enchanted Christmas 1997 x264 720p Esub BluRay Dual Audio English Hindi GOPISAHI torrent



Torrent Description

http://www.gopisahi.pw/

Format : Matroska
Format version : Version 4 / Version 2
File size : 453 MiB
Duration : 1 h 10 min
Overall bit rate : 895 kb/s
Movie name : Beauty And The Beast The Enchanted Christmas 1997 GOPISAHI

Video
Format : AVC
Format/Info : Advanced Video Codec
Codec ID : V_MPEG4/ISO/AVC
Duration : 1 h 10 min
Bit rate : 712 kb/s
Width : 1 280 pixels
Height : 720 pixels
Display aspect ratio : 16:9
Frame rate mode : Constant
Frame rate : 23.976 (24000/1001) FPS
Color space : YUV
Chroma subsampling : 4:2:0
Bit depth : 8 bits
Scan type : Progressive
Bits/(Pixel*Frame) : 0.032
Stream size : 360 MiB (80%)
Title : GOPISAHI
Writing library : FASM Quality Enhancer Bitrate Squeezer 7.0 (c)2012 Fachman

Audio #1
Format : AAC
Format/Info : Advanced Audio Codec
Duration : 1 h 10 min
Bit rate : 91.0 kb/s
Channel(s) : 6 channels
Channel positions : Front: L C R, Side: L R, LFE
Sampling rate : 48.0 kHz
Frame rate : 46.875 FPS (1024 SPF)
Compression mode : Lossy
Delay relative to video : 1 s 875 ms
Stream size : 45.9 MiB (10%)
Title : GOPISAHI
Language : Hindi

Audio #2
Format : AAC
Duration : 1 h 10 min
Bit rate : 89.4 kb/s
Channel(s) : 2 channels
Channel positions : Front: L R
Sampling rate : 48.0 kHz
Frame rate : 46.875 FPS (1024 SPF)
Compression mode : Lossy
Delay relative to video : -125 ms
Stream size : 45.2 MiB (10%)
Title : GOPISAHI
Language : English

Text
Language : English




Download Beauty And The Beast The Enchanted Christmas 1997 x264 720p Esub BluRay Dual Audio English Hindi GOPISAHI torrent


Related Torrents


Comments   (please login to add your comment!)

mycock     hindi 720p     big boss 12     alpha 2018     teen tryouts     astrid mature     naughtyamerica 20283     kira thorn way     lost paradise 2012     nikky     2017 brrip     spider man etrg     amour     stepsister     veronica avlu     transformers the last knight 2017 bluray 1080p     big boss     1080p bluray x265 hevc tigole     agents     americas test kitchen s18e07     oldje     liam payne for you     bigbutt     camangel     


Home - Browse Torrents

Made with love by an Extratorrent Fan!